DNS SERVER ÄNDERN, um der staatlichen Zensur zu entgehen. Sollten wir von eurem Provider gesperrt werden, nutzt den TOR BROWSER oder ändert euren DNS SERVER.

Filmwünsche können bei uns im Forum abgegeben werden

Wir Speichern Nicht




 
 
 
Top Releases
Mile.22.2018.German.DL.1080p...
Mile.22.2018.German.720p.Blu...
Reign.of.the.Supermen.2019.M...
Upgrade.2018.German.DL.1080p...
Upgrade.2018.German.720p.Blu...
Upgrade.2018.MULTI.COMPLETE....
Durch.die.Wand.The.Dawn.Wall...
Forever.My.Girl.2018.DUAL.CO...
Forever.My.Girl.German.DL.10...
Forever.My.Girl.German.720p....

Cinedubs
Widows.Toedliche.Witwen.2018...
Widows.Toedliche.Witwen.2018...
Bohemian.Rhapsody.2018.GERMA...
Bohemian.Rhapsody.2018.GERMA...
Robin.Hood.2018.German.DL.AC...
Robin.Hood.2018.German.DL.AC...
Bumblebee.2018.German.DL.AC3...
Bumblebee.2018.German.DL.AC3...
Der.Nussknacker.und.die.vier...
Dont.Worry.weglaufen.geht.ni...

Neuerscheinungen 2018-19
Superfly.German.720p.BluRay....
Superfly.German.DL.1080p.Blu...
Gaston.Katastrophen.am.laufe...
Gaston.Katastrophen.am.laufe...
Dog.Days.2018.German.DL.1080...
Dog.Days.2018.German.720p.Bl...
Enemy.Mine.1985.DUAL.COMPLET...
Der.Weg.nach.El.Dorado.2000....
Der.Weg.nach.El.Dorado.2000....
Gott.ist.nicht.tot.Ein.Licht...

XXX
The.House.Of.Sin.2014.XXX.72...
Trouble.X.2.2016.XXX.720p.HD...
Value.10.Real.Massive.Racks....
White.18.Yo.Mistresses.For.B...
Desperate.Lesbian.Wives.XXX....
Epic.Lesbian.Orgasms.2016.XX...
Kinky.Erotic.Suckjobs.XXX.HD...
Lesbian.Tongue.Massage.XXX.H...
MomPov.E450.Pheobe.XXX.1080p...
DadCrush.19.01.13.Vanna.Bard...
PornMegaLoad.19.01.11.Lexi.S...
LadyVoyeurs.19.01.09.Brook.L...
BBW.Butt.Crushers.XXX.1080p....
GirlsGonePink.19.01.13.Katan...
ReadyOrNotHereICum.19.01.12....
TeensLikeItBig.19.01.09.Gia....
Passion-HD.19.01.09.Emma.Sta...
Shoplyfter.19.01.09.Aryana.A...
Fuck.Me.Furious.3.XXX.1080p....
RoccoSiffredi.19.01.12.Candy...

3D
Die.Reise.zum.Mittelpunkt.de...
Die.Reise.zum.Mittelpunkt.de...
Die.Reise.zum.Mittelpunkt.de...
Kaluoka.Hina.Das.Zauberriff....
Blade.Runner.2049.3D.2017.Ge...
Walhalla.Rising.3D.2009.DUAL...
Sleepwalker.3D.2011.DUAL.COM...
Bis.an.die.Grenzen.des.Unive...
Best.of.3D.vol.13.-.15.GERMA...
Limbradur.und.die.Magie.der....
Kaluoka.Hina.Das.Zauberriff....
Limbradur.und.die.Magie.der....
Smallfoot.3D.2018.COMPLETE.B...
Smallfoot.Ein.eisigartiges.A...
Skyscraper.3D.2018.German.DL...

Old_Stuff
Ip.Man.2.2010.German.DTS.108...
Todfreunde.aka.Bad.Influence...
Animatrix.2003.German.DL.108...
Animatrix.2003.German.DL.720...
Akte.X.S06.German.DTS.DL.108...
The.Beauty.of.Gemina.Minor.S...
ZZ.Top.Live.from.Texas.2008....
Peter.Hase.2018.German.DL.10...
Akte.X.S05.German.DTS.DL.108...
Akte.X.S04.German.DTS.DL.108...
Akte.X.S03.German.DTS.DL.108...
Dunkirk.1958.COMPLETE.BLURAY...
Das.Wunder.von.Manhattan.199...
The.Amazing.Spiderman.2.Rise...
Rise.of.the.Predator.2014.Ge...

Filme
Mord.ohne.Auftrag.2006.Germa...
Brothers.Justice.2010.German...
Baby.Mama.2008.German.AC3D.D...
Die.Spur.des.Falken.1941.Ger...
Breaking.In.2018.German.DL.1...
Waterworld.Arrow.Ulysses.Cut...
Hubi.der.Pinguin.1995.German...
Hubi.der.Pinguin.1995.German...
Halloween.Night.Satan.lebt.1...
S.W.A.T.2017.S02.German.DD51...
S.W.A.T.2017.S02.German.DD51...
Tierische.Gauner.Wer.ueberle...
Tierische.Gauner.Wer.ueberle...
The.Big.Bang.Theory.S12.Germ...
The.Big.Bang.Theory.S12.Germ...
Das.Geheimarchiv.im.Warschau...
Carter.S01.GERMAN.DL.1080p.H...
Vater.werden.ist.nicht.schwe...
Ein.Hauptgewinn.fuer.Papa.20...
Dogman.2018.German.AC3.5.1.D...
Zu.zweit.ist.es.leichter.200...
Der.Tote.am.Teich.2015.GERMA...
Koenig.Laurin.2016.GERMAN.72...
Forever.My.Girl.2018.German....

 
 
Die.Unglaublichen.2.2018.German.DL.1080p.BluRay.x264-COiNCiDENCE

Jahr: 2018
Genre: Komödie
Sprache: Deutsch AC3 | Englisch DTS
Laufzeit: 1h 57mn
Bitrate: 5 530 Kbps
Format: MKV
Größe: 4.55 GiB
Release:

Beschreibung:

Nachdem sie mit vereinten Kräften den Superschurken Syndrome besiegt haben, kehrt bei der Superheldenfamilie Parr langsam wieder so etwas wie Normalität ein. Nach der Zerstörung ihres Hauses wohnt die fünfköpfige Familie in einem neuen Heim inklusive Höhle für das Equipment. Mama Helen alias Elastigirl alias Mrs. Incredible (Stimme im Original: Holly Hunter) setzt sich offiziell als Politikerin für die Rechte von Superhelden ein, wird aber zugleich undercover als Heldin aktiv, während Ehemann Bob aka Mr. Incredible (Craig T. Nelson) zu Hause bleibt und sich um die Kinder Violet (Sarah Vowell), Dash (Huck Milner) und Baby Jack-Jack kümmert. Nach wie vor hat die Familie keine Ahnung, welche besonderen Kräfte der Jüngste in der Familie besitzt. Doch dann taucht erneut ein finsterer Bösewicht auf und bedroht die Bürger von Metrovolle und die Unglaublichen nehmen gemeinsam mit ihrem Freund Frozone (Samuel L. Jackson) den Kampf gegen den Schurken Screenslaver auf…



Complete name                            : coincidence-dieunglaublichen2-1080p.mkv
Format                                   : Matroska
Format version                           : Version 4 / Version 2
File size                                : 4.55 GiB
Duration                                 : 1h 57mn
Overall bit rate                         : 5 530 Kbps
Encoded date                             : UTC 2019-01-10 21:35:18
Writing application                      : mkvmerge v8.3.0 ('Over the Horizon') 64bit
Writing library                          : libebml v1.3.1 + libmatroska v1.4.2
DURATION                                 : 01:57:50.198000000
NUMBER_OF_FRAMES                         : 662831
NUMBER_OF_BYTES                          : 1333618452
_STATISTICS_WRITING_APP                  : mkvmerge v8.3.0 ('Over the Horizon') 64bit
_STATISTICS_WRITING_DATE_UTC             : 2019-01-10 21:35:18
_STATISTICS_TAGS                         : BPS DURATION NUMBER_OF_FRAMES NUMBER_OF_BYTES

Video
ID                                       : 1
Format                                   : AVC
Format/Info                              : Advanced Video Codec
Format profile                           : High@L4.1
Format settings, CABAC                   : Yes
Format settings, ReFrames                : 5 frames
Codec ID                                 : V_MPEG4/ISO/AVC
Duration                                 : 1h 57mn
Bit rate                                 : 3 399 Kbps
Width                                    : 1 920 pixels
Height                                   : 808 pixels
Display aspect ratio                     : 2.40:1
Frame rate mode                          : Constant
Frame rate                               : 23.976 fps
Color space                              : YUV
Chroma subsampling                       : 4:2:0
Bit depth                                : 8 bits
Scan type                                : Progressive
Bits/(Pixel*Frame)                       : 0.091
Stream size                              : 2.80 GiB (61%)
Writing library                          : x264 core 157 r2935 545de2f
Encoding settings                        : cabac=1 / ref=5 / deblock=1:-1:-1 / analyse=0x3:0x113 / me=umh / subme=10 / psy=1 / psy_rd=1.00:0.00 / mixed_ref=1 / me_range=16 / chroma_me=1 / trellis=2 / 8x8dct=1 / cqm=0 / deadzone=21,11 / fast_pskip=0 / chroma_qp_offset=-2 / threads=25 / lookahead_threads=2 / sliced_threads=0 / nr=0 / decimate=1 / interlaced=0 / bluray_compat=0 / constrained_intra=0 / bframes=5 / b_pyramid=2 / b_adapt=1 / b_bias=0 / direct=3 / weightb=1 / open_gop=0 / weightp=1 / keyint=250 / keyint_min=23 / scenecut=40 / intra_refresh=0 / rc_lookahead=40 / rc=crf / mbtree=1 / crf=20.0 / qcomp=0.60 / qpmin=16 / qpmax=69 / qpstep=4 / ip_ratio=1.40 / aq=1:1.00
Language                                 : English
Default                                  : Yes
Forced                                   : No
DURATION                                 : 01:57:50.147000000
NUMBER_OF_FRAMES                         : 169514
NUMBER_OF_BYTES                          : 3098704898
_STATISTICS_WRITING_APP                  : mkvmerge v8.3.0 ('Over the Horizon') 64bit
_STATISTICS_WRITING_DATE_UTC             : 2019-01-10 21:35:18
_STATISTICS_TAGS                         : BPS DURATION NUMBER_OF_FRAMES NUMBER_OF_BYTES

Audio #1
ID                                       : 2
Format                                   : AC-3
Format/Info                              : Audio Coding 3
Mode extension                           : CM (complete main)
Format settings, Endianness              : Big
Codec ID                                 : A_AC3
Duration                                 : 1h 57mn
Bit rate mode                            : Constant
Bit rate                                 : 512 Kbps
Channel(s)                               : 6 channels
Channel positions                        : Front: L C R, Side: L R, LFE
Sampling rate                            : 48.0 KHz
Bit depth                                : 16 bits
Compression mode                         : Lossy
Stream size                              : 432 MiB (9%)
Language                                 : German
Default                                  : Yes
Forced                                   : No

Audio #2
ID                                       : 3
Format                                   : DTS
Format/Info                              : Digital Theater Systems
Mode                                     : 16
Format settings, Endianness              : Big
Codec ID                                 : A_DTS
Duration                                 : 1h 57mn
Bit rate mode                            : Constant
Bit rate                                 : 1 509 Kbps
Channel(s)                               : 6 channels
Channel positions                        : Front: L C R, Side: L R, LFE
Sampling rate                            : 48.0 KHz
Bit depth                                : 24 bits
Compression mode                         : Lossy
Stream size                              : 1.24 GiB (27%)
Language                                 : English
Default                                  : No
Forced                                   : No


Download:
Share Online Share OnlineShare OnlineShare Online
 

Kommentare