DNS SERVER ÄNDERN, um der staatlichen Zensur zu entgehen. Sollten wir von eurem Provider gesperrt werden, nutzt den TOR BROWSER oder ändert euren DNS SERVER.

Filmwünsche können bei uns im Forum abgegeben werden

Wir Speichern Nicht




 
 
 
Top Releases
Mile.22.2018.German.DL.1080p...
Mile.22.2018.German.720p.Blu...
Reign.of.the.Supermen.2019.M...
Upgrade.2018.German.DL.1080p...
Upgrade.2018.German.720p.Blu...
Upgrade.2018.MULTI.COMPLETE....
Durch.die.Wand.The.Dawn.Wall...
Forever.My.Girl.2018.DUAL.CO...
Forever.My.Girl.German.DL.10...
Forever.My.Girl.German.720p....

Cinedubs
Widows.Toedliche.Witwen.2018...
Widows.Toedliche.Witwen.2018...
Bohemian.Rhapsody.2018.GERMA...
Bohemian.Rhapsody.2018.GERMA...
Robin.Hood.2018.German.DL.AC...
Robin.Hood.2018.German.DL.AC...
Bumblebee.2018.German.DL.AC3...
Bumblebee.2018.German.DL.AC3...
Der.Nussknacker.und.die.vier...
Dont.Worry.weglaufen.geht.ni...

Neuerscheinungen 2018-19
Superfly.German.720p.BluRay....
Superfly.German.DL.1080p.Blu...
Gaston.Katastrophen.am.laufe...
Gaston.Katastrophen.am.laufe...
Dog.Days.2018.German.DL.1080...
Dog.Days.2018.German.720p.Bl...
Enemy.Mine.1985.DUAL.COMPLET...
Der.Weg.nach.El.Dorado.2000....
Der.Weg.nach.El.Dorado.2000....
Gott.ist.nicht.tot.Ein.Licht...

XXX
The.House.Of.Sin.2014.XXX.72...
Trouble.X.2.2016.XXX.720p.HD...
Value.10.Real.Massive.Racks....
White.18.Yo.Mistresses.For.B...
Desperate.Lesbian.Wives.XXX....
Epic.Lesbian.Orgasms.2016.XX...
Kinky.Erotic.Suckjobs.XXX.HD...
Lesbian.Tongue.Massage.XXX.H...
MomPov.E450.Pheobe.XXX.1080p...
DadCrush.19.01.13.Vanna.Bard...
PornMegaLoad.19.01.11.Lexi.S...
LadyVoyeurs.19.01.09.Brook.L...
BBW.Butt.Crushers.XXX.1080p....
GirlsGonePink.19.01.13.Katan...
ReadyOrNotHereICum.19.01.12....
TeensLikeItBig.19.01.09.Gia....
Passion-HD.19.01.09.Emma.Sta...
Shoplyfter.19.01.09.Aryana.A...
Fuck.Me.Furious.3.XXX.1080p....
RoccoSiffredi.19.01.12.Candy...

3D
Die.Reise.zum.Mittelpunkt.de...
Die.Reise.zum.Mittelpunkt.de...
Die.Reise.zum.Mittelpunkt.de...
Kaluoka.Hina.Das.Zauberriff....
Blade.Runner.2049.3D.2017.Ge...
Walhalla.Rising.3D.2009.DUAL...
Sleepwalker.3D.2011.DUAL.COM...
Bis.an.die.Grenzen.des.Unive...
Best.of.3D.vol.13.-.15.GERMA...
Limbradur.und.die.Magie.der....
Kaluoka.Hina.Das.Zauberriff....
Limbradur.und.die.Magie.der....
Smallfoot.3D.2018.COMPLETE.B...
Smallfoot.Ein.eisigartiges.A...
Skyscraper.3D.2018.German.DL...

Old_Stuff
Ip.Man.2.2010.German.DTS.108...
Todfreunde.aka.Bad.Influence...
Animatrix.2003.German.DL.108...
Animatrix.2003.German.DL.720...
Akte.X.S06.German.DTS.DL.108...
The.Beauty.of.Gemina.Minor.S...
ZZ.Top.Live.from.Texas.2008....
Peter.Hase.2018.German.DL.10...
Akte.X.S05.German.DTS.DL.108...
Akte.X.S04.German.DTS.DL.108...
Akte.X.S03.German.DTS.DL.108...
Dunkirk.1958.COMPLETE.BLURAY...
Das.Wunder.von.Manhattan.199...
The.Amazing.Spiderman.2.Rise...
Rise.of.the.Predator.2014.Ge...

Filme
Brothers.Justice.2010.German...
Baby.Mama.2008.German.AC3D.D...
Die.Spur.des.Falken.1941.Ger...
Breaking.In.2018.German.DL.1...
Waterworld.Arrow.Ulysses.Cut...
Hubi.der.Pinguin.1995.German...
Hubi.der.Pinguin.1995.German...
Halloween.Night.Satan.lebt.1...
S.W.A.T.2017.S02.German.DD51...
S.W.A.T.2017.S02.German.DD51...
Tierische.Gauner.Wer.ueberle...
Tierische.Gauner.Wer.ueberle...
The.Big.Bang.Theory.S12.Germ...
The.Big.Bang.Theory.S12.Germ...
Das.Geheimarchiv.im.Warschau...
Carter.S01.GERMAN.DL.1080p.H...
Vater.werden.ist.nicht.schwe...
Ein.Hauptgewinn.fuer.Papa.20...
Dogman.2018.German.AC3.5.1.D...
Zu.zweit.ist.es.leichter.200...
Der.Tote.am.Teich.2015.GERMA...
Koenig.Laurin.2016.GERMAN.72...
Forever.My.Girl.2018.German....
The.Expendables.2.2012.Germa...

 
 
Solo.2018.German.720p.WEB.x264.iNTERNAL-BiGiNT

Jahr: 2018
Genre: Abenteuer, Drama
Sprache: Deutsch AC3
Laufzeit: 1h 30mn
Bitrate: 3 684 Kbps
Format: MKV
Größe: 2.34 GiB
Release:

Beschreibung:

Ein Surfer stürzt in einer einsamen Gegend der Kanaren von einer Klippe und reflektiert im Überlebenskampf über sein Leben und die Liebe. Nach einer wahren Begebenheit.



Complete name                            : solo.2018.german.720p.web.x264.internal-bigint.mkv
Format                                   : Matroska
Format version                           : Version 4 / Version 2
File size                                : 2.34 GiB
Duration                                 : 1h 30mn
Overall bit rate mode                    : Variable
Overall bit rate                         : 3 684 Kbps
Encoded date                             : UTC 2019-01-11 22:51:40
Writing application                      : mkvmerge v22.0.0 ('At The End Of The World') 64-bit
Writing library                          : libebml v1.3.5 + libmatroska v1.4.8
DURATION                                 : 01:30:33.625000000
NUMBER_OF_FRAMES                         : 424
NUMBER_OF_BYTES                          : 10866
_STATISTICS_WRITING_APP                  : mkvmerge v22.0.0 ('At The End Of The World') 64-bit
_STATISTICS_WRITING_DATE_UTC             : 2019-01-11 22:51:40
_STATISTICS_TAGS                         : BPS DURATION NUMBER_OF_FRAMES NUMBER_OF_BYTES

Video
ID                                       : 1
Format                                   : AVC
Format/Info                              : Advanced Video Codec
Format profile                           : Main@L3.1
Format settings, CABAC                   : Yes
Format settings, ReFrames                : 3 frames
Codec ID                                 : V_MPEG4/ISO/AVC
Duration                                 : 1h 30mn
Bit rate mode                            : Variable
Bit rate                                 : 3 320 Kbps
Maximum bit rate                         : 4 980 Kbps
Width                                    : 1 280 pixels
Height                                   : 720 pixels
Display aspect ratio                     : 16:9
Frame rate mode                          : Constant
Frame rate                               : 24.000 fps
Color space                              : YUV
Chroma subsampling                       : 4:2:0
Bit depth                                : 8 bits
Scan type                                : Progressive
Bits/(Pixel*Frame)                       : 0.150
Stream size                              : 2.05 GiB (88%)
Writing library                          : x264 core 148 r2715 7e75228
Encoding settings                        : cabac=1 / ref=3 / deblock=1:0:0 / analyse=0x1:0x111 / me=umh / subme=10 / psy=1 / psy_rd=1.00:0.00 / mixed_ref=1 / me_range=24 / chroma_me=1 / trellis=2 / 8x8dct=0 / cqm=0 / deadzone=21,11 / fast_pskip=1 / chroma_qp_offset=-2 / threads=8 / lookahead_threads=1 / sliced_threads=0 / nr=0 / decimate=1 / interlaced=0 / bluray_compat=0 / stitchable=1 / constrained_intra=0 / bframes=2 / b_pyramid=0 / b_adapt=2 / b_bias=0 / direct=3 / weightb=1 / open_gop=0 / weightp=2 / keyint=48 / keyint_min=25 / scenecut=0 / intra_refresh=0 / rc_lookahead=48 / rc=2pass / mbtree=1 / bitrate=3320 / ratetol=1.0 / qcomp=0.50 / qpmin=6 / qpmax=51 / qpstep=4 / cplxblur=20.0 / qblur=0.5 / vbv_maxrate=4980 / vbv_bufsize=6640 / nal_hrd=vbr / filler=0 / ip_ratio=1.40 / aq=1:1.00
Default                                  : Yes
Forced                                   : No

Audio
ID                                       : 2
Format                                   : AC-3
Format/Info                              : Audio Coding 3
Mode extension                           : CM (complete main)
Format settings, Endianness              : Big
Codec ID                                 : A_AC3
Duration                                 : 1h 30mn
Bit rate mode                            : Constant
Bit rate                                 : 384 Kbps
Channel(s)                               : 6 channels
Channel positions                        : Front: L C R, Side: L R, LFE
Sampling rate                            : 48.0 KHz
Bit depth                                : 16 bits
Compression mode                         : Lossy
Stream size                              : 250 MiB (10%)
Language                                 : German
Default                                  : Yes
Forced                                   : No


Download:
Share Online Share OnlineShare OnlineShare Online
 

Kommentare