DNS SERVER ÄNDERN, um der staatlichen Zensur zu umgehen. Sollten wir von eurem Provider gesperrt werden, nutzt den TOR BROWSER oder ändert euren DNS SERVER.

Filmwünsche können bei uns im Forum abgegeben werden

Wir Speichern Nicht




 
 
 
Top Releases
Upgrade.2018.German.DL.1080p...
Upgrade.2018.German.720p.Blu...
Upgrade.2018.MULTI.COMPLETE....
Durch.die.Wand.The.Dawn.Wall...
Forever.My.Girl.2018.DUAL.CO...
Forever.My.Girl.German.DL.10...
Forever.My.Girl.German.720p....
LBJ.2016.German.AC3.DL.1080p...
American.Animals.2018.German...
Alpha.2018.German.AC3.DL.108...

Cinedubs
Bumblebee.2018.German.DL.AC3...
Bumblebee.2018.German.DL.AC3...
Der.Nussknacker.und.die.vier...
Dont.Worry.weglaufen.geht.ni...
Dont.Worry.weglaufen.geht.ni...
Gaensehaut.2.Gruseliges.Hall...
Aquaman.TS.LD.German.DL.720p...
Eho.Echo.German.720p.WEBRip....
Eho.Echo.German.1080p.WEBRip...
Bad.Times.at.the.El.Royale.2...

Neuerscheinungen 2018-19
Gott.ist.nicht.tot.Ein.Licht...
Narziss.und.Psyche.Narcissus...
Trauma.Das.Boese.verlangt.Lo...
Trauma.Das.Boese.verlangt.Lo...
Gott.ist.nicht.tot.Ein.Licht...
The.Domestics.2018.DUAL.COMP...
Trauma.Das.Boese.verlangt.Lo...
The.Domestics.German.DL.1080...
The.Domestics.German.720p.Bl...
IO.2019.German.DL.1080p.WEB....

XXX
Teenage.Bedroom.Secrets.4.XX...
Nerd.Pervert.Vol.38.XXX.1080...
CherryPimps.19.01.10.Elsa.Je...
FiLFExtra.E41.Kendall.Kayden...
FoxxedUp.19.01.09.Young.Mist...
FakeTaxi.19.01.13.Madison.Ph...
ATKGirlfriends.19.01.10.Emil...
MommyBlowsBest.19.01.09.Jasm...
MomXXX.19.01.10.Alyssa.Reece...
MomPov.E427.Amehlia.XXX.1080...
GirlsGoneWild.19.01.10.Valen...
ErotiqueTVLive.18.07.07.Jay....
BuccWild.18.05.27.Pregnant.E...
FiLFExtra.E38.Kiara.Knight.A...
MommyGotBoobs.19.01.12.Ava.A...
MomsLickTeens.19.01.09.Londo...
MatureNL.19.01.09.Gina.Feroc...
ThaiGirlsWild.18.12.31.Coco....
CreampieInAsia.19.01.11.Lany...
KarupsOW.19.01.07.Angelica.L...

3D
Kaluoka.Hina.Das.Zauberriff....
Blade.Runner.2049.3D.2017.Ge...
Walhalla.Rising.3D.2009.DUAL...
Sleepwalker.3D.2011.DUAL.COM...
Bis.an.die.Grenzen.des.Unive...
Best.of.3D.vol.13.-.15.GERMA...
Limbradur.und.die.Magie.der....
Kaluoka.Hina.Das.Zauberriff....
Limbradur.und.die.Magie.der....
Smallfoot.3D.2018.COMPLETE.B...
Smallfoot.Ein.eisigartiges.A...
Skyscraper.3D.2018.German.DL...
Meg.3D.2018.MULTi.COMPLETE.B...
Meg.3D.2018.German.DL.1080p....
Gans.im.Glueck.3D.2018.MULTi...

Old_Stuff
Todfreunde.aka.Bad.Influence...
Animatrix.2003.German.DL.108...
Animatrix.2003.German.DL.720...
Akte.X.S06.German.DTS.DL.108...
The.Beauty.of.Gemina.Minor.S...
ZZ.Top.Live.from.Texas.2008....
Peter.Hase.2018.German.DL.10...
Akte.X.S05.German.DTS.DL.108...
Akte.X.S04.German.DTS.DL.108...
Akte.X.S03.German.DTS.DL.108...
Dunkirk.1958.COMPLETE.BLURAY...
Das.Wunder.von.Manhattan.199...
The.Amazing.Spiderman.2.Rise...
Rise.of.the.Predator.2014.Ge...
Detective.Dee.und.das.Geheim...

Filme
Welcome.Home.2018.German.DL....
Twin.Dragons.-.Das.Powerduo....
Die.Schulhofratten.von.Chica...
Die.Schulhofratten.von.Chica...
Die.Unbefriedigten.1960.GERM...
Die.Unbefriedigten.1960.GERM...
Ein.Mann.wird.zum.Killer.197...
Bad.Boys.2.2003.MULTi.COMPLE...
Der.Commander.UNCUT.GERMAN.1...
Der.Zauberwunsch.1997.German...
Nur.Tote.ueberleben.UNCUT.19...
Der.Manitou.-.Geburt.des.Dae...
Die.Schneekoenigin.2016.GERM...
Black.Book.2006.German.DL.AC...
Grosse.Haie.Kleine.Fische.20...
Sling.Blade.Auf.Messers.Schn...
Das.weisse.Zauberpferd.1992....
Das.weisse.Zauberpferd.1992....
Star.Trek.Discovery.S02.Germ...
Ray.Donovan.S06.GERMAN.DUBBE...
Ray.Donovan.S06.GERMAN.DUBBE...
Brennender.Hass.1989.GERMAN....
Brennender.Hass.1989.GERMAN....
Bugsy.1991.GERMAN.1080p.HDTV...

 
 
Der.Hauptmann.2017.German.DTS.1080p.BluRay.x264-KOC

Jahr: 2017
Genre: Drama, Krieg
Sprache: Deutsch DTS
Laufzeit: 1h 59mn
Bitrate: 6 824 Kbps
Format: MKV
Größe: 5.69 GiB
Release:

Beschreibung:

1945, gegen Ende des Zweiten Weltkrieges, irgendwo im deutschen Niemandsland: Der Gefreite Willi Herold (Max Hubacher) wird von dem gnadenlosen Hauptmann Junker (Alexander Fehling), der ihn für einen Deserteur hält, erbarmungslos gejagt. Doch kurz vor seinem erwarteten Tod entdeckt Willi in einem Auto am Straßenrand eine mit Orden versehene Hauptmannsuniform der Luftwaffe, die er kurzerhand überstreift. Mit der Uniform schlüpft er schnell auch in die dazugehörige Rolle und beginnt, verstreute Soldaten um sich zu scharen, darunter Freytag (Milan Peschel) und Kipinski (Frederick Lau). Willi testet seine neu gewonnene Verfügungsgewalt aus. Seine ehemaligen Kameraden sind froh, einen vermeintlichen Befehlshaber gefunden zu haben, der ihnen sagt, was sie tun sollen, doch Herold verfällt schon bald der Versuchung der Macht...



Complete name                            : Der.Hauptmann.2017.German.DTS.1080p.BluRay.x264-KOC.mkv
Format                                   : Matroska
Format version                           : Version 2
File size                                : 5.69 GiB
Duration                                 : 1h 59mn
Overall bit rate                         : 6 824 Kbps
Encoded date                             : UTC 2019-01-11 14:50:14
Writing application                      : mkvmerge v29.0.0 ('Like It Or Not') 64-bit
Writing library                          : libebml v1.3.6 + libmatroska v1.4.9
DURATION                                 : 01:58:42.189000000
NUMBER_OF_FRAMES                         : 1050
NUMBER_OF_BYTES                          : 6092762
_STATISTICS_WRITING_APP                  : mkvmerge v29.0.0 ('Like It Or Not') 64-bit
_STATISTICS_WRITING_DATE_UTC             : 2019-01-11 14:50:14
_STATISTICS_TAGS                         : BPS DURATION NUMBER_OF_FRAMES NUMBER_OF_BYTES

Video
ID                                       : 1
Format                                   : AVC
Format/Info                              : Advanced Video Codec
Format profile                           : High@L4.0
Format settings, CABAC                   : Yes
Format settings, ReFrames                : 5 frames
Codec ID                                 : V_MPEG4/ISO/AVC
Duration                                 : 1h 59mn
Bit rate                                 : 5 179 Kbps
Width                                    : 1 920 pixels
Height                                   : 808 pixels
Display aspect ratio                     : 2.40:1
Frame rate mode                          : Constant
Frame rate                               : 23.976 fps
Color space                              : YUV
Chroma subsampling                       : 4:2:0
Bit depth                                : 8 bits
Scan type                                : Progressive
Bits/(Pixel*Frame)                       : 0.139
Stream size                              : 4.32 GiB (76%)
Writing library                          : x264 core 157 r2935 545de2f
Encoding settings                        : cabac=1 / ref=5 / deblock=1:-3:-3 / analyse=0x3:0x113 / me=umh / subme=7 / psy=1 / psy_rd=1.00:0.00 / mixed_ref=1 / me_range=32 / chroma_me=1 / trellis=1 / 8x8dct=1 / cqm=0 / deadzone=21,11 / fast_pskip=1 / chroma_qp_offset=-2 / threads=6 / lookahead_threads=1 / sliced_threads=0 / nr=0 / decimate=1 / interlaced=0 / bluray_compat=0 / constrained_intra=0 / bframes=5 / b_pyramid=2 / b_adapt=2 / b_bias=0 / direct=1 / weightb=1 / open_gop=0 / weightp=2 / keyint=240 / keyint_min=23 / scenecut=40 / intra_refresh=0 / rc_lookahead=40 / rc=crf / mbtree=1 / crf=17.0 / qcomp=0.60 / qpmin=0 / qpmax=69 / qpstep=4 / ip_ratio=1.40 / aq=1:1.00
Default                                  : Yes
Forced                                   : No

Audio
ID                                       : 2
Format                                   : DTS
Format/Info                              : Digital Theater Systems
Mode                                     : 16
Format settings, Endianness              : Big
Codec ID                                 : A_DTS
Duration                                 : 1h 59mn
Bit rate mode                            : Constant
Bit rate                                 : 1 509 Kbps
Channel(s)                               : 6 channels
Channel positions                        : Front: L C R, Side: L R, LFE
Sampling rate                            : 48.0 KHz
Bit depth                                : 24 bits
Compression mode                         : Lossy
Stream size                              : 1.26 GiB (22%)
Language                                 : German
Default                                  : Yes
Forced                                   : No

Text
ID                                       : 3
Format                                   : VobSub
Muxing mode                              : zlib
Codec ID                                 : S_VOBSUB
Codec ID/Info                            : The same subtitle format used on DVDs
Language                                 : German
Default                                  : Yes
Forced                                   : No


Download:
Share Online Share OnlineShare OnlineShare Online
 

Kommentare