DNS SERVER ÄNDERN, um der staatlichen Zensur zu umgehen. Sollten wir von eurem Provider gesperrt werden, nutzt den TOR BROWSER oder ändert euren DNS SERVER.

Filmwünsche können bei uns im Forum abgegeben werden

Wir Speichern Nicht




 
 
 
Top Releases
Upgrade.2018.German.DL.1080p...
Upgrade.2018.German.720p.Blu...
Upgrade.2018.MULTI.COMPLETE....
Durch.die.Wand.The.Dawn.Wall...
Forever.My.Girl.2018.DUAL.CO...
Forever.My.Girl.German.DL.10...
Forever.My.Girl.German.720p....
LBJ.2016.German.AC3.DL.1080p...
American.Animals.2018.German...
Alpha.2018.German.AC3.DL.108...

Cinedubs
Bumblebee.2018.German.DL.AC3...
Bumblebee.2018.German.DL.AC3...
Der.Nussknacker.und.die.vier...
Dont.Worry.weglaufen.geht.ni...
Dont.Worry.weglaufen.geht.ni...
Gaensehaut.2.Gruseliges.Hall...
Aquaman.TS.LD.German.DL.720p...
Eho.Echo.German.720p.WEBRip....
Eho.Echo.German.1080p.WEBRip...
Bad.Times.at.the.El.Royale.2...

Neuerscheinungen 2018-19
Gott.ist.nicht.tot.Ein.Licht...
Narziss.und.Psyche.Narcissus...
Trauma.Das.Boese.verlangt.Lo...
Trauma.Das.Boese.verlangt.Lo...
Gott.ist.nicht.tot.Ein.Licht...
The.Domestics.2018.DUAL.COMP...
Trauma.Das.Boese.verlangt.Lo...
The.Domestics.German.DL.1080...
The.Domestics.German.720p.Bl...
IO.2019.German.DL.1080p.WEB....

XXX
Teenage.Bedroom.Secrets.4.XX...
Nerd.Pervert.Vol.38.XXX.1080...
CherryPimps.19.01.10.Elsa.Je...
FiLFExtra.E41.Kendall.Kayden...
FoxxedUp.19.01.09.Young.Mist...
FakeTaxi.19.01.13.Madison.Ph...
ATKGirlfriends.19.01.10.Emil...
MommyBlowsBest.19.01.09.Jasm...
MomXXX.19.01.10.Alyssa.Reece...
MomPov.E427.Amehlia.XXX.1080...
GirlsGoneWild.19.01.10.Valen...
ErotiqueTVLive.18.07.07.Jay....
BuccWild.18.05.27.Pregnant.E...
FiLFExtra.E38.Kiara.Knight.A...
MommyGotBoobs.19.01.12.Ava.A...
MomsLickTeens.19.01.09.Londo...
MatureNL.19.01.09.Gina.Feroc...
ThaiGirlsWild.18.12.31.Coco....
CreampieInAsia.19.01.11.Lany...
KarupsOW.19.01.07.Angelica.L...

3D
Kaluoka.Hina.Das.Zauberriff....
Blade.Runner.2049.3D.2017.Ge...
Walhalla.Rising.3D.2009.DUAL...
Sleepwalker.3D.2011.DUAL.COM...
Bis.an.die.Grenzen.des.Unive...
Best.of.3D.vol.13.-.15.GERMA...
Limbradur.und.die.Magie.der....
Kaluoka.Hina.Das.Zauberriff....
Limbradur.und.die.Magie.der....
Smallfoot.3D.2018.COMPLETE.B...
Smallfoot.Ein.eisigartiges.A...
Skyscraper.3D.2018.German.DL...
Meg.3D.2018.MULTi.COMPLETE.B...
Meg.3D.2018.German.DL.1080p....
Gans.im.Glueck.3D.2018.MULTi...

Old_Stuff
Todfreunde.aka.Bad.Influence...
Animatrix.2003.German.DL.108...
Animatrix.2003.German.DL.720...
Akte.X.S06.German.DTS.DL.108...
The.Beauty.of.Gemina.Minor.S...
ZZ.Top.Live.from.Texas.2008....
Peter.Hase.2018.German.DL.10...
Akte.X.S05.German.DTS.DL.108...
Akte.X.S04.German.DTS.DL.108...
Akte.X.S03.German.DTS.DL.108...
Dunkirk.1958.COMPLETE.BLURAY...
Das.Wunder.von.Manhattan.199...
The.Amazing.Spiderman.2.Rise...
Rise.of.the.Predator.2014.Ge...
Detective.Dee.und.das.Geheim...

Filme
Welcome.Home.2018.German.DL....
Twin.Dragons.-.Das.Powerduo....
Die.Schulhofratten.von.Chica...
Die.Schulhofratten.von.Chica...
Die.Unbefriedigten.1960.GERM...
Die.Unbefriedigten.1960.GERM...
Ein.Mann.wird.zum.Killer.197...
Bad.Boys.2.2003.MULTi.COMPLE...
Der.Commander.UNCUT.GERMAN.1...
Der.Zauberwunsch.1997.German...
Nur.Tote.ueberleben.UNCUT.19...
Der.Manitou.-.Geburt.des.Dae...
Die.Schneekoenigin.2016.GERM...
Black.Book.2006.German.DL.AC...
Grosse.Haie.Kleine.Fische.20...
Sling.Blade.Auf.Messers.Schn...
Das.weisse.Zauberpferd.1992....
Das.weisse.Zauberpferd.1992....
Star.Trek.Discovery.S02.Germ...
Ray.Donovan.S06.GERMAN.DUBBE...
Ray.Donovan.S06.GERMAN.DUBBE...
Brennender.Hass.1989.GERMAN....
Brennender.Hass.1989.GERMAN....
Bugsy.1991.GERMAN.1080p.HDTV...

 
 
Sex.Up.Your.Life.2012.German.DL.1080p.BluRay.x264-RSG

Jahr: 2012
Genre: Komödie
Sprache: Deutsch DTS | Englisch DTS
Laufzeit: 1h 43mn
Bitrate: 9 499 Kbps
Format: MKV
Größe: 6.87 GiB
Release:

Beschreibung:

Buchhalter Jordan ist im Bett eine solche Komplettniete, dass selbst die treue Jugendfreundin, die unlängst zur Geliebten wurde, ihn ohne Zögern raus wirft, als sie erst davon erfährt. Jordan kommt bei seinem Kumpel unter, dem indischstämmigen Frauenversteher. Der versucht ihm wenig erfolgreich Knowhow zu vermitteln, macht ihn aber auch bekannt mit einem hübschen Callgirl. Das hat Probleme mit den Finanzen, könnte die Hilfe eines Buchhalters gut gebrauchen, und gibt im Gegenzug die Sexkunde-Nachhilfelehrerin.



Complete name                            : rsg-sexup-1080p.mkv
Format                                   : Matroska
Format version                           : Version 2
File size                                : 6.87 GiB
Duration                                 : 1h 43mn
Overall bit rate                         : 9 499 Kbps
Writing application                      : mkvmerge v4.1.1 ('Bouncin' Back') built on Jul  3 2010 22:54:08
Writing library                          : libebml v1.0.0 + libmatroska v1.0

Video
ID                                       : 1
Format                                   : AVC
Format/Info                              : Advanced Video Codec
Format profile                           : High@L4.1
Format settings, CABAC                   : Yes
Format settings, ReFrames                : 4 frames
Codec ID                                 : V_MPEG4/ISO/AVC
Duration                                 : 1h 43mn
Bit rate                                 : 6 292 Kbps
Width                                    : 1 920 pixels
Height                                   : 1 080 pixels
Display aspect ratio                     : 16:9
Frame rate mode                          : Constant
Frame rate                               : 23.976 fps
Color space                              : YUV
Chroma subsampling                       : 4:2:0
Bit depth                                : 8 bits
Scan type                                : Progressive
Bits/(Pixel*Frame)                       : 0.127
Stream size                              : 4.55 GiB (66%)
Writing library                          : x264 core 133 r2334 a3ac64b
Encoding settings                        : cabac=1 / ref=4 / deblock=1:-1:-1 / analyse=0x3:0x133 / me=umh / subme=7 / psy=1 / psy_rd=1.00:0.15 / mixed_ref=1 / me_range=16 / chroma_me=1 / trellis=1 / 8x8dct=1 / cqm=0 / deadzone=21,11 / fast_pskip=0 / chroma_qp_offset=-3 / threads=12 / lookahead_threads=2 / sliced_threads=0 / nr=0 / decimate=1 / interlaced=0 / bluray_compat=0 / constrained_intra=0 / bframes=3 / b_pyramid=2 / b_adapt=1 / b_bias=0 / direct=3 / weightb=1 / open_gop=0 / weightp=2 / keyint=240 / keyint_min=23 / scenecut=40 / intra_refresh=0 / rc_lookahead=40 / rc=crf / mbtree=1 / crf=20.0 / qcomp=0.60 / qpmin=10 / qpmax=69 / qpstep=4 / ip_ratio=1.40 / aq=1:1.00
Language                                 : English
Default                                  : Yes
Forced                                   : No

Audio #1
ID                                       : 2
Format                                   : DTS
Format/Info                              : Digital Theater Systems
Mode                                     : 16
Format settings, Endianness              : Big
Codec ID                                 : A_DTS
Duration                                 : 1h 43mn
Bit rate mode                            : Constant
Bit rate                                 : 1 509 Kbps
Channel(s)                               : 6 channels
Channel positions                        : Front: L C R, Side: L R, LFE
Sampling rate                            : 48.0 KHz
Bit depth                                : 16 bits
Compression mode                         : Lossy
Stream size                              : 1.09 GiB (16%)
Language                                 : German
Default                                  : Yes
Forced                                   : No

Audio #2
ID                                       : 3
Format                                   : DTS
Format/Info                              : Digital Theater Systems
Mode                                     : 16
Format settings, Endianness              : Big
Codec ID                                 : A_DTS
Duration                                 : 1h 43mn
Bit rate mode                            : Constant
Bit rate                                 : 1 509 Kbps
Channel(s)                               : 6 channels
Channel positions                        : Front: L C R, Side: L R, LFE
Sampling rate                            : 48.0 KHz
Bit depth                                : 16 bits
Compression mode                         : Lossy
Stream size                              : 1.09 GiB (16%)
Language                                 : English
Default                                  : Yes
Forced                                   : No


Download:
Share Online Share OnlineShare OnlineShare Online
 

Kommentare