DNS SERVER ÄNDERN, um der staatlichen Zensur zu entgehen. Sollten wir von eurem Provider gesperrt werden, nutzt den TOR BROWSER oder ändert euren DNS SERVER.

Filmwünsche können bei uns im Forum abgegeben werden

Wir Speichern Nicht




 
 
 
Top Releases
Mile.22.2018.German.DL.1080p...
Mile.22.2018.German.720p.Blu...
Reign.of.the.Supermen.2019.M...
Upgrade.2018.German.DL.1080p...
Upgrade.2018.German.720p.Blu...
Upgrade.2018.MULTI.COMPLETE....
Durch.die.Wand.The.Dawn.Wall...
Forever.My.Girl.2018.DUAL.CO...
Forever.My.Girl.German.DL.10...
Forever.My.Girl.German.720p....

Cinedubs
Widows.Toedliche.Witwen.2018...
Widows.Toedliche.Witwen.2018...
Bohemian.Rhapsody.2018.GERMA...
Bohemian.Rhapsody.2018.GERMA...
Robin.Hood.2018.German.DL.AC...
Robin.Hood.2018.German.DL.AC...
Bumblebee.2018.German.DL.AC3...
Bumblebee.2018.German.DL.AC3...
Der.Nussknacker.und.die.vier...
Dont.Worry.weglaufen.geht.ni...

Neuerscheinungen 2018-19
Superfly.German.720p.BluRay....
Superfly.German.DL.1080p.Blu...
Gaston.Katastrophen.am.laufe...
Gaston.Katastrophen.am.laufe...
Dog.Days.2018.German.DL.1080...
Dog.Days.2018.German.720p.Bl...
Enemy.Mine.1985.DUAL.COMPLET...
Der.Weg.nach.El.Dorado.2000....
Der.Weg.nach.El.Dorado.2000....
Gott.ist.nicht.tot.Ein.Licht...

XXX
The.House.Of.Sin.2014.XXX.72...
Trouble.X.2.2016.XXX.720p.HD...
Value.10.Real.Massive.Racks....
White.18.Yo.Mistresses.For.B...
Desperate.Lesbian.Wives.XXX....
Epic.Lesbian.Orgasms.2016.XX...
Kinky.Erotic.Suckjobs.XXX.HD...
Lesbian.Tongue.Massage.XXX.H...
MomPov.E450.Pheobe.XXX.1080p...
DadCrush.19.01.13.Vanna.Bard...
PornMegaLoad.19.01.11.Lexi.S...
LadyVoyeurs.19.01.09.Brook.L...
BBW.Butt.Crushers.XXX.1080p....
GirlsGonePink.19.01.13.Katan...
ReadyOrNotHereICum.19.01.12....
TeensLikeItBig.19.01.09.Gia....
Passion-HD.19.01.09.Emma.Sta...
Shoplyfter.19.01.09.Aryana.A...
Fuck.Me.Furious.3.XXX.1080p....
RoccoSiffredi.19.01.12.Candy...

3D
Die.Reise.zum.Mittelpunkt.de...
Die.Reise.zum.Mittelpunkt.de...
Die.Reise.zum.Mittelpunkt.de...
Kaluoka.Hina.Das.Zauberriff....
Blade.Runner.2049.3D.2017.Ge...
Walhalla.Rising.3D.2009.DUAL...
Sleepwalker.3D.2011.DUAL.COM...
Bis.an.die.Grenzen.des.Unive...
Best.of.3D.vol.13.-.15.GERMA...
Limbradur.und.die.Magie.der....
Kaluoka.Hina.Das.Zauberriff....
Limbradur.und.die.Magie.der....
Smallfoot.3D.2018.COMPLETE.B...
Smallfoot.Ein.eisigartiges.A...
Skyscraper.3D.2018.German.DL...

Old_Stuff
Ip.Man.2.2010.German.DTS.108...
Todfreunde.aka.Bad.Influence...
Animatrix.2003.German.DL.108...
Animatrix.2003.German.DL.720...
Akte.X.S06.German.DTS.DL.108...
The.Beauty.of.Gemina.Minor.S...
ZZ.Top.Live.from.Texas.2008....
Peter.Hase.2018.German.DL.10...
Akte.X.S05.German.DTS.DL.108...
Akte.X.S04.German.DTS.DL.108...
Akte.X.S03.German.DTS.DL.108...
Dunkirk.1958.COMPLETE.BLURAY...
Das.Wunder.von.Manhattan.199...
The.Amazing.Spiderman.2.Rise...
Rise.of.the.Predator.2014.Ge...

Filme
Brothers.Justice.2010.German...
Baby.Mama.2008.German.AC3D.D...
Die.Spur.des.Falken.1941.Ger...
Breaking.In.2018.German.DL.1...
Waterworld.Arrow.Ulysses.Cut...
Hubi.der.Pinguin.1995.German...
Hubi.der.Pinguin.1995.German...
Halloween.Night.Satan.lebt.1...
S.W.A.T.2017.S02.German.DD51...
S.W.A.T.2017.S02.German.DD51...
Tierische.Gauner.Wer.ueberle...
Tierische.Gauner.Wer.ueberle...
The.Big.Bang.Theory.S12.Germ...
The.Big.Bang.Theory.S12.Germ...
Das.Geheimarchiv.im.Warschau...
Carter.S01.GERMAN.DL.1080p.H...
Vater.werden.ist.nicht.schwe...
Ein.Hauptgewinn.fuer.Papa.20...
Dogman.2018.German.AC3.5.1.D...
Zu.zweit.ist.es.leichter.200...
Der.Tote.am.Teich.2015.GERMA...
Koenig.Laurin.2016.GERMAN.72...
Forever.My.Girl.2018.German....
The.Expendables.2.2012.Germa...

 
 
Shadow.of.the.Vampire.2000.German.DL.1080p.BluRay.x264-DECENT

Jahr: 2000
Genre: Drama
Sprache: Deutsch DTS | Englisch DTS
Laufzeit: 1h 35mn
Bitrate: 7 763 Kbps
Format: MKV
Größe: 5.17 GiB
Release:

Beschreibung:

In den frühen 20er Jahren bereitet der deutsche Regisseur Friedrich Wilhelm Murnau den Dreh eines Vampirfilms nach Motiven von Bram Stokers “Dracula” vor. Crew und Besetzung sind nur mäßig begeistert, als der enthusiastische Murnau den Drehort in den osteuropäischen Hinterwald verlegt und mit dem höchst exzentrischen Schauspieler Max Schreck einen in jeder Hinsicht beunruhigenden Titelheld verpflichtet. Schon bald kommt es auf dem Set zu schaurigen Vorfällen.



Complete name                            : dec-vampire.1080p.mkv
Format                                   : Matroska
Format version                           : Version 2
File size                                : 5.17 GiB
Duration                                 : 1h 35mn
Overall bit rate                         : 7 763 Kbps
Encoded date                             : UTC 2010-10-25 04:16:00
Writing application                      : mkvmerge v4.1.1 ('Bouncin' Back') gebaut am Jul  3 2010 22:54:08
Writing library                          : libebml v1.0.0 + libmatroska v1.0.0

Video
ID                                       : 1
Format                                   : AVC
Format/Info                              : Advanced Video Codec
Format profile                           : High@L4.1
Format settings, CABAC                   : Yes
Format settings, ReFrames                : 5 frames
Codec ID                                 : V_MPEG4/ISO/AVC
Duration                                 : 1h 35mn
Bit rate                                 : 4 591 Kbps
Width                                    : 1 920 pixels
Height                                   : 856 pixels
Display aspect ratio                     : 2.25:1
Frame rate mode                          : Constant
Frame rate                               : 23.976 fps
Color space                              : YUV
Chroma subsampling                       : 4:2:0
Bit depth                                : 8 bits
Scan type                                : Progressive
Bits/(Pixel*Frame)                       : 0.117
Stream size                              : 3.06 GiB (59%)
Writing library                          : x264 core 104 r1698 c41b8f0
Encoding settings                        : cabac=1 / ref=5 / deblock=1:0:0 / analyse=0x3:0x113 / me=umh / subme=7 / psy=1 / psy_rd=1.00:0.00 / mixed_ref=1 / me_range=16 / chroma_me=1 / trellis=1 / 8x8dct=1 / cqm=0 / deadzone=21,11 / fast_pskip=0 / chroma_qp_offset=-2 / threads=6 / sliced_threads=0 / nr=0 / decimate=1 / interlaced=0 / constrained_intra=0 / bframes=3 / b_pyramid=2 / b_adapt=2 / b_bias=0 / direct=1 / weightb=1 / open_gop=0 / weightp=2 / keyint=250 / keyint_min=23 / scenecut=40 / intra_refresh=0 / rc_lookahead=40 / rc=crf / mbtree=1 / crf=20.0 / qcomp=0.60 / qpmin=10 / qpmax=51 / qpstep=4 / ip_ratio=1.40 / aq=1:1.00
Default                                  : Yes
Forced                                   : No

Audio #1
ID                                       : 2
Format                                   : DTS
Format/Info                              : Digital Theater Systems
Mode                                     : 16
Format settings, Endianness              : Big
Codec ID                                 : A_DTS
Duration                                 : 1h 35mn
Bit rate mode                            : Constant
Bit rate                                 : 1 509 Kbps
Channel(s)                               : 6 channels
Channel positions                        : Front: L C R, Side: L R, LFE
Sampling rate                            : 48.0 KHz
Bit depth                                : 24 bits
Compression mode                         : Lossy
Stream size                              : 1.01 GiB (19%)
Language                                 : German
Default                                  : Yes
Forced                                   : No

Audio #2
ID                                       : 3
Format                                   : DTS
Format/Info                              : Digital Theater Systems
Mode                                     : 16
Format settings, Endianness              : Big
Codec ID                                 : A_DTS
Duration                                 : 1h 35mn
Bit rate mode                            : Constant
Bit rate                                 : 1 509 Kbps
Channel(s)                               : 6 channels
Channel positions                        : Front: L C R, Side: L R, LFE
Sampling rate                            : 48.0 KHz
Bit depth                                : 24 bits
Compression mode                         : Lossy
Stream size                              : 1.01 GiB (19%)
Language                                 : English
Default                                  : No
Forced                                   : No



Download:
Share Online Share OnlineShare OnlineShare Online
 

Kommentare